Зверополис мультфильм 2016 скачать торрент в хорошем качестве hd 1080 avi. Зверополис (2016) скачать торрент бесплатно » Фоса.тв

Зверополис мультфильм 2016 скачать торрент в хорошем качестве hd 1080 avi Rating: 6,1/10 898 reviews

Тролли (2016) скачать торрент в хорошем качестве бесплатно

зверополис мультфильм 2016 скачать торрент в хорошем качестве hd 1080 avi

А вот когда судьба сводит двух таких личностей, как полицейский и преступник, а это своего рода жертвы заговора. Жизнь здесь идет своим чередом. Темы, затронутые создателями, дают возможность задуматься. Этот мультик смотрели всей семьей и муж был в восторге. Не заметив того, что вода совсем близко, птенцу снова удалось подойти к воде. Можно даже сказать, что мультик, скорее, для более взрослого зрителя.

Next

Зверополис мультфильм 2016 смотреть в хорошем HD качестве

зверополис мультфильм 2016 скачать торрент в хорошем качестве hd 1080 avi

Она работает полицейским и, несмотря на свои большие уши, она очень ответственно подходит к своей работе. Но когда Джуди раскроет городской заговор, отношение к зайчихе сразу изменится. Леопардлюбящий пончики, ленивиц Блиц, напарник Ника- все они интересные,с яркими характерами. Пресса тоже не молчала — появились многочисленные заметки в местных изданиях, а население насмехалось и негодовало. Размер потока : 62,8 Мбайт 6% 6. Но все же несколько ошибок янашла. Так же хорошо показали предательство на политическом уровне - это тоже жизненный момент.


Next

Мультфильмы в HD качестве скачать бесплатно

зверополис мультфильм 2016 скачать торрент в хорошем качестве hd 1080 avi

Зайчиха с отличием завершает обучение в полицейской академии и теперь готова приступить к настоящим боевым заданиям. В замке возле Львова невозможно жить Князю и его домашним, потому что нечисть делает все, чтобы выгнать жителей замка. Милая вышла парочка : Будет интересен к просмотру не только детям, но и взрослым. Пытаясь показать детям наставнические уроки которые реже всего запоминают в новом свете, тем самым объясняя некоторые факторы, когда дети взрослеют и как нужно себя вести. Например, ящерицы, которые являются жителями пустыни, живут в лучших кварталах Площади Сахара, а обитатели тундры в Тундратауне, и есть городской бедностью. Полицейский участок городка получает нового сотрудника в лице Джуди Хоппс. События мультфильма разворачиваются на территории Зверополиса — здесь звери обитают мирно, слаженно, счастливо.

Next

Мультфильмы в HD качестве скачать бесплатно

зверополис мультфильм 2016 скачать торрент в хорошем качестве hd 1080 avi

Джудит Хопс — крольчиха, которую приняли на работу в полицейские органы, что являлось чудом. Порой люди не совсем могут дать полной и осознанный ответ на вопрос, но с уверенностью могут знать ответ, поэтому этот мультфильм учит открытости и раскрепощенности всего мира. По всем вопросам обращаться по адресу:. Всю свою жизнь это милое создание грезило о службе в полиции. Неизвестные звери в масках под покровом ночи грабят самые известные банки и всегда уходят незамеченными.

Next

Зверополис скачать бесплатно в хорошем качестве без регистрации, кино без смс

зверополис мультфильм 2016 скачать торрент в хорошем качестве hd 1080 avi

При копировании ссылки на загрузку фильма на свой сайт ссылка на источник обязательна! Смогут ли лис и зайчиха вовремя раскрыть данное им дело? Глубокие мысли спрятаны за историями зверей. Джуди должна была продолжить эту традицию, и вместе с своими многочисленными братьями и сестрами тоже работать на морковной ферме. Отличное качество предоставленных здесь материалов гарантирует удовольствие от просмотра любимых мультипликационных картин. И совсем скоро она столкнется с тем, что непросто противостоять крупным зверям. Храбрая особа была настроена решительно.

Next

Зверополис скачать бесплатно в хорошем качестве без регистрации, кино без смс

зверополис мультфильм 2016 скачать торрент в хорошем качестве hd 1080 avi

Размер потока : 78,7 Мбайт 8% 4. Люди перешли черту в стремлении взять под контроль матушку природу, и в итоге на планете из рыб остались лишь киты. Левая часть папки абсолютно пустая. И теперь их жизнь мало чем отличается от человеческой. Но коварные бергены вновь нападают на маленький народец и похищают нескольких из них. Так же Зверополис включает в себя оченьмного мыслей, которые явно не станут лишними для детей.

Next

Зверополис скачать торрент мультфильм в hd 720 качестве

зверополис мультфильм 2016 скачать торрент в хорошем качестве hd 1080 avi

Конечно я не могу утверждать, что но вам понравится, но судя по отзывам его стоит посмотреть. В сценев лаборатории Дугласа на стене висит карта города с фотографиямипропавших животных. Хотя и детям этой яркий и забавный мультфильм будет по вкусу. Несмотря на страдание от серьезного головокружения, он убегает из своего дома, чтобы взять летные уроки у его друга, неуклюжей белки-летяги Юлии. Смотрели в кинотеатре, потом скачали дома. Просмотр данного проекта определенно поможет скоротать время вместе с дорогими людьми или в одиночестве. В напарники героини дают хитрого сыщика лиса по имени Ник.

Next

Зверополис скачать торрент мультфильм в hd 720 качестве

зверополис мультфильм 2016 скачать торрент в хорошем качестве hd 1080 avi

Тут хочется выделитьдаже не столько главных героев, а скорее второстепенных. Тут и детишкам он понравится: яркий, красочный мультик, куча смешных зверушек, активный сюжет. И взрослым есть над чем подумать. Песни все выучили уже Да и взрослым нравится! Например, ленивцы обслуживают посетителей и работают с документами. Все новости, публикуемые на сайте, принадлежат их авторам, администрация сайта не несет ответственность за их использование! Напарники оказались в самом логове злодеев, и теперь только от их слаженных действий зависит успех всей операции.

Next