Лидия красноружева актриса из голые и смешные. Голый Театр

Лидия красноружева актриса из голые и смешные Rating: 9,5/10 1016 reviews

Голые и смешные. Лидия Красноружева

лидия красноружева актриса из голые и смешные

Размер потока : 2,39 Мбайт 6% Выравнивание : Разделение по промежуткам Продолжительность промежутка : 40 мс. Искусство управления интимными мышцами - тайна великих обольстительниц мира. Наш сервис поиска торрентов в реальном времени собирает информацию с крупных торрент трекеров и сортирует полученные результаты в удобную таблицу. Мастера этого вида кинотворчества нередко поднимались до серьёзных философских обобщений в своих произведениях. Размер потока : 1,74 Мбайт 8% Выравнивание : Разделение по промежуткам Продолжительность промежутка : 40 мс. Раздел также доступен для всех желающих. Размер потока : 1,77 Мбайт 8% Выравнивание : Разделение по промежуткам Продолжительность промежутка : 40 мс.

Next

Голые и Смешные. Мужчина! Откройте шампанское!

лидия красноружева актриса из голые и смешные

Весь материал, представленный на данном сайте, предназначен только для персонального использования и в ознакомительных целях. И дело даже не в том, что уровень сексуальных ощущений для обоих партнеров возрастает многократно, а в том, что с помощью осознанных сокращений интимных мышц женщина во время занятий любовью способна наполнять мужчину особой энергией, которая делает его более чувственным, нежным, страстным. Полово́е созрева́ние также пуберта́тный период или пуберта́т — процесс изменений в организме подростка, вследствие которых он становится взрослым и способным к продолжению рода. Привлекательность такой женщины поистине огромна. Please pay attention that we are not responsible for the authenticity and legality of the torrent. Размер потока : 2,27 Мбайт 6% Выравнивание : Разделение по промежуткам Продолжительность промежутка : 40 мс. Ему обучались храмовые жрицы Египта, Индии, Таиланда, японские гейши, греческие гетеры.

Next

Онлайн Лидия Красноружева. Голые и Смешные. Подборка Cамых, Cамых Актрис (2006

лидия красноружева актриса из голые и смешные

Половое созревание запускается с помощью сигналов из головного мозга к половым железам: яичкам у мальчиков и яичникам у девочек. За внимание телезрителей будут бороться розыгрыши эротического характера! Размер потока : 2,84 Мбайт 8% Выравнивание : Разделение по промежуткам Продолжительность промежутка : 40 мс. Надеемся, вам понравится на сайте filmodok Год производства: 2006 - 2013 г. Ограничение 18+ Часть 1 Часть 2 Часть 3 А также вы можете ознакомится с нашим Если у Вас отсутствует плеер, попробуйте отключить расширения браузера, блокирующие рекламу, типа AdBlock или Adguard. В любом случае разлука была наказанием.


Next

Голые и Смешные. Мужчина! Откройте шампанское!

лидия красноружева актриса из голые и смешные

Его теория выглядела следующим образом. Добро пожаловать на крупный торрент архив фильмов и игр tparser. Воспользоваться всем этим можно, если обратиться к нам. Рост тела ускоряется в первой половине пубертатного периода, а полностью заканчивается с завершением полового созревания. Sick bastards who watch child pornography should be sent to psychiatric evaluation. Размер потока : 2,21 Мбайт 8% Выравнивание : Разделение по промежуткам Продолжительность промежутка : 40 мс. Скачивайте торренты без ограничений и без всяких регистраций на трекерах.

Next

Передача дтв голые и смешные, скачать бесплатно и без регистрации

лидия красноружева актриса из голые и смешные

До этого французские журналисты и критики называли так фильмы, сделанные на материалах съёмок путешествий. Размер потока : 2,08 Мбайт 10% Выравнивание : Разделение по промежуткам Продолжительность промежутка : 40 мс. Самый сексуальный пистолет в мире. Издревле, в любой из культур, владение подобным навыком считалось настоящим искусством. Чаще всего реакции героев розыгрыша на неожиданную демонстрацию прелестей женских тел предсказать невозможно.

Next

Передача дтв голые и смешные, скачать бесплатно и без регистрации

лидия красноружева актриса из голые и смешные

Размер потока : 1,72 Мбайт 6% Выравнивание : Разделение по промежуткам Продолжительность промежутка : 40 мс. Жара во время паспортного контроля. В проекте вы увидите, как раскованные красавицы-актрисы и актеры разыгрывают ни о чем не подозревающих случайных прохожих, посетителей клубов, покупателей в супермаркетах, пляжников, да кого угодно! At TorrentSearchWeb we have implemented a range of filters to prevent such torrents to be indexed. Иногда ответить на этот вопрос не так просто. Наш сайт создан специально для людей интересующихся документальным кино. Размер потока : 2,37 Мбайт 7% Выравнивание : Разделение по промежуткам Продолжительность промежутка : 40 мс.

Next

Передача дтв голые и смешные, скачать бесплатно и без регистрации

лидия красноружева актриса из голые и смешные

Подборка Cамых, Cамых Актрис Маргарита Хубеджева. При этом производится поиск видео онлайн бесплатно. Поэтому вы стопроцентно найдёте то, что вас интересует. Размер потока : 2,20 Мбайт 6% Выравнивание : Разделение по промежуткам Продолжительность промежутка : 40 мс. Современное общество с трудом побороло предрассудки по поводу религиозных, расовых и идеологических различий.

Next

Голый Театр

лидия красноружева актриса из голые и смешные

У него было четыре руки, четыре ноги и две головы, одновременно мужская и женская. Такая женщина всегда будет любимой и желанной для своего мужчины. Размер потока : 1,44 Мбайт 6% Выравнивание : Разделение по промежуткам Продолжительность промежутка : 40 мс. Вам больше не придется искать торренты на основных торрент трекерах в поисках нужной раздачи — мы предлагаем найти и скачать фильмы в хорошем качестве прямо на нашем сайте. Смотрите документальные фильмы на нашем сайте В нашей базе более 10000 фильмов! Презинтация крема для боди арт. Подборка Cамых, Cамых Актрис Ольга Павленко.

Next